#TITLE:I Still Love You;
#SUBTITLE:;
#ARTIST:W-inds;
#TITLETRANSLIT:I Still Love You;
#SUBTITLETRANSLIT:;
#ARTISTTRANSLIT:W-inds;
#CREDIT:Chu Nhat , 18-1-2009;
#BANNER:I Still Love You-bn.png;
#BACKGROUND:I Still Love You-bg.png;
#LYRICSPATH:;
#CDTITLE:pm4cd.png;
#MUSIC:I Still Love You.mp3;
#OFFSET:0.800;
#SAMPLESTART:6.150;
#SAMPLELENGTH:20.000;
#SELECTABLE:YES;
#BPMS:0.000=169.980;
#STOPS:;
#BGCHANGES:;
// cache tags:
#FIRSTBEAT:4.000;
#LASTBEAT:798.000;
#SONGFILENAME:Songs/Music V.I.P ^_^/I Still Love You/I Still Love You.sm;
#HASMUSIC:1;
#HASBANNER:1;
#MUSICLENGTH:282.056;
// end cache tags

//---------------dance-single - ----------------
#NOTES:
     dance-single:
     :
     Hard:
     12:
     1.000,1.000,1.000,0.238,0.362,1261.000,630.000,67.000,0.000,61.000:
0000
0000
0000
0000
,
0100
0000
0100
0000
0011
0000
0001
1000
,
0001
1000
0001
0000
1100
0000
0001
1000
,
0010
0000
0010
0000
1001
0000
0100
0010
,
0100
0010
0100
0000
1001
0000
0010
0100
,
1001
0000
1001
0000
0010
0001
0100
0000
,
1000
0000
0000
0000
0100
0000
0000
0000
1001
0010
0001
0010
0001
0010
0001
0010
,
0100
0000
0000
0000
0010
0000
0000
0000
2200
0000
0000
0000
0000
0000
0000
3300
,
0011
0000
0000
0000
1100
0000
0000
0000
1001
0100
1000
0100
1000
0100
1000
0100
,
0011
0000
0011
0000
0010
0100
1000
0000
,
0100
0000
0000
0000
0010
0000
0000
0000
1100
0010
0100
0010
0100
0010
0100
0010
,
1001
0010
0100
1000
0000
0000
0001
0000
,
1000
0000
0100
0000
0010
0000
0001
0000
0010
0100
0010
0100
0010
0100
0010
0100
,
1001
0000
0110
0000
0010
0100
1000
0000
,
0101
0000
0000
0000
0101
0000
0000
0000
1010
0100
1000
0100
1000
0100
1000
0100
,
1001
0000
1001
0000
1000
0100
0001
0000
,
0110
0000
0000
0000
1010
0000
0000
0000
1100
0001
1000
0001
1000
0001
1000
0001
,
0110
0000
0110
0000
0001
0100
1000
0000
,
0011
0000
0000
0000
1100
0000
0000
0000
0110
1000
0100
1000
0100
1000
0100
1000
,
0011
0000
1100
0000
0010
0001
0010
0000
,
1100
0000
0000
0000
0100
0000
0000
0000
0011
1000
0001
1000
0001
1000
0001
1000
,
0110
0110
1001
1001
1100
1100
0011
0011
,
1010
1010
0101
0101
1100
1010
0101
0011
,
1100
0110
0011
0202
0000
0000
1303
0000
,
0011
0110
1100
2020
0000
0000
3031
0000
,
1100
0110
0011
0202
0000
0000
1303
0000
,
0011
0110
1100
2020
0000
0000
3031
0000
,
1100
0110
0011
0202
0000
0000
1303
0000
,
0011
0110
1100
2020
0000
0000
3031
0000
,
1100
1010
0011
2002
0000
0000
3103
0000
,
0101
0000
0011
0000
1010
0000
1100
0000
0001
0100
0001
0100
0001
0100
0001
0100
,
1000
0100
0010
0001
1100
0000
0011
0000
,
0001
0000
0010
0000
0100
0000
1000
0000
0111
1000
0100
1000
0100
1000
0100
1000
,
0001
0001
0010
0010
1100
0110
0011
0000
,
1000
1000
0100
0100
0011
0110
1100
0000
,
1000
0100
0010
0001
1100
0000
0011
0000
,
0001
0000
0010
0000
0100
0000
1000
0000
0111
1000
0100
1000
0100
1000
0100
1000
,
0001
0001
0010
0010
1100
0110
0011
0000
,
1000
1000
0100
0100
0011
0110
1100
0000
,
0011
0000
0101
0000
1001
0110
0011
0000
,
1010
0000
0000
0000
0101
0000
0000
0000
1001
0100
0001
0100
0001
0100
0001
0100
,
1010
0000
0110
0000
0101
1010
0011
0000
,
1100
0000
0000
0000
0011
0000
0000
0000
1010
0100
0010
0100
0010
0100
0010
0100
,
1001
0000
0110
0000
1100
0110
0011
0000
,
0110
0000
0000
0000
0101
0000
0000
0000
1100
0010
1000
0010
1000
0010
1000
0010
,
0101
0000
0011
0000
1100
0011
1100
0000
,
0110
0000
0000
0000
0011
0000
0000
0000
1001
0100
0001
0100
0001
0100
0001
0100
,
1000
0100
0010
0001
0010
0100
1000
0100
,
0010
0001
0010
0100
1100
0000
0011
0000
,
2000
0000
0110
3000
0020
0000
0101
0030
,
1000
0000
0000
0000
0100
0000
0000
0000
0011
0100
0001
0100
0001
0100
0001
0100
,
0001
0010
0100
1000
0100
0010
0001
0010
,
0100
1000
0100
0010
0011
0000
1100
0000
,
0002
0000
0110
0003
0200
0000
1010
0300
,
1110
0111
1011
1101
,
1000
0101
0010
0001
1010
0100
1000
0100
,
0011
0000
0011
0000
1100
0110
0011
0000
,
1001
0000
0000
0000
0110
0000
0000
0000
1010
0001
0010
0001
0010
0001
0010
0001
,
1010
0000
1010
0000
0110
0011
1001
0000
,
0101
0000
0000
0000
0110
0000
0000
0000
1001
0010
1000
0010
1000
0010
1000
0010
,
0101
0000
0101
0000
0110
1100
0011
0000
,
0110
0000
0000
0000
1010
0000
0000
0000
1100
0010
0100
0010
0100
0010
0100
0010
,
1001
0000
1001
0000
0011
1100
0110
0000
,
0101
0000
0000
0000
0110
0000
0000
0000
0110
0001
0010
0001
0010
0001
0010
0001
,
1100
0011
1001
0110
,
1100
1100
0000
0022
0000
0000
1133
0000
,
0110
0011
0110
1001
,
0101
0101
0000
2200
0000
0000
3311
0000
,
1001
0000
0011
0000
0110
1100
0011
0000
,
0110
0000
1001
0000
0110
0000
0000
0000
1010
0001
1000
0001
1000
0001
1000
0001
,
1010
0000
0101
0000
0110
1100
0011
0000
,
0021
0000
0000
0000
0001
0000
0000
0000
0001
0100
0001
0100
0001
0100
0001
0100
,
1031
1001
1010
1010
0101
0101
0110
0110
,
1100
1100
0011
0011
0101
1100
0110
1010
,
0011
0110
1100
2020
0000
0000
3130
0000
,
1100
0110
0011
0202
0000
0000
0313
0000
,
1001
0101
0011
0022
0000
0000
1033
0000
,
1001
1010
1100
2200
0000
0000
3301
0000
,
0110
1100
0011
2002
0000
0000
3013
0000
,
0110
0011
1100
0220
0000
0000
1330
0000
,
1010
0110
0101
0022
0000
0000
0133
0000
,
0001
0010
0100
1000
0200
0000
0320
0000
,
1031
0010
0100
1000
0011
0000
1100
0000
,
1000
0000
0100
0000
0010
0000
0001
0000
1110
0001
0100
0001
0100
0001
0100
0001
,
1000
1000
0100
0100
0011
0110
1100
0000
,
0001
0001
0010
0010
1100
0110
0011
0000
,
0001
0010
0100
1000
0011
0000
1100
0000
,
1000
0000
0100
0000
0010
0000
0001
0000
0111
1000
0010
1000
0010
1000
0010
1000
,
0100
0100
0001
0001
1010
0110
0101
0000
,
0001
0001
1000
1000
0101
0110
1010
0000
,
0110
0000
1010
0000
0110
1001
1100
0000
,
0101
0000
0000
0000
1010
0000
0000
0000
1001
0010
0100
0010
0100
0010
0100
0010
,
0101
0000
1001
0000
1010
0101
1100
0000
,
0011
0000
0000
0000
1100
0000
0000
0000
0101
1000
0100
1000
0100
1000
0100
1000
,
0011
0000
1001
0000
0011
0110
1100
0000
,
0101
0000
0000
0000
1010
0000
0000
0000
0011
0100
0001
0100
0001
0100
0001
0100
,
1001
0000
1100
0000
0011
1100
0011
0000
,
1001
0000
0000
0000
1100
0000
0000
0000
1001
0010
0001
0010
0001
0010
0001
0010
,
0001
0010
0100
1000
0100
0010
0001
0010
,
0100
1000
0100
0010
0011
0000
1100
0000
,
0002
0000
1100
0003
0200
0000
0011
1300
,
0100
0000
0000
0000
0010
0000
0000
0000
1100
0010
0001
0010
0001
0010
0001
0010
,
1000
0100
0010
0100
1000
0100
0010
0001
,
0010
0100
0010
0001
1100
0000
0011
0000
,
0200
0000
1010
0300
0020
0000
1001
0030
,
0111
1110
1101
1011
,
0001
1010
0100
1000
0101
0010
0001
0010
,
1100
0000
1100
0000
0011
0110
1100
0000
,
0110
0000
0000
0000
1001
0000
0000
0000
0101
1000
0100
1000
0100
1000
0100
1000
,
0101
0000
0101
0000
1001
1100
0110
0000
,
1010
0000
0000
0000
1001
0000
0000
0000
1001
0100
1000
0100
1000
0100
1000
0100
,
1010
0000
1010
0000
1001
0011
1100
0000
,
1001
0000
0000
0000
0101
0000
0000
0000
1010
0100
0010
0100
0010
0100
0010
0100
,
0011
0000
0110
0000
1100
0011
1001
0000
,
1010
0000
0000
0000
1001
0000
0000
0000
1001
0010
0001
0010
0001
0010
0001
0010
,
1100
0011
0110
1001
,
0110
0110
0000
2002
0000
0000
3113
0000
,
0011
1100
1001
0110
,
1001
1001
0000
0220
0000
0000
1331
0000
,
0110
0000
1100
0000
0110
0011
1100
0000
,
1001
0000
0110
0000
1001
0000
0000
0000
0101
1000
0001
1000
0001
1000
0001
1000
,
0101
0000
1010
0000
0110
0011
1100
0000
,
2010
0000
0000
0000
0010
0000
0000
0000
0100
0001
0100
0001
0100
0001
0100
3001
,
0110
0110
1001
1001
1100
1100
0011
0011
,
1010
1010
0101
0101
1100
1010
0101
0011
,
1100
0110
0011
0000
1011
0000
0111
0000
,
0011
0110
1100
0000
1101
0000
1110
0000
,
0110
0011
0101
1100
,
1010
0000
0000
0000
0111
0000
0000
0000
1100
0011
1100
0011
1100
0011
1100
0011
,
1100
0111
1101
1110
,
1100
0110
0011
0000
1011
0000
0111
0000
,
1001
1100
1010
0011
,
0101
0000
0000
0000
1110
0000
0000
0000
0110
1001
0110
1001
0110
1001
0110
1001
,
0110
0110
0011
1001
,
1101
0000
0000
0000
1011
0000
0000
0000
0011
1100
0011
1100
0011
1100
0011
1100
,
0110
1001
0110
1001
,
1011
0000
0000
0000
1101
0000
0000
0000
1001
0110
1001
0110
1001
0110
1001
0110
,
1100
0011
1001
0110
,
0101
0110
1010
0000
1100
0000
0110
0000
,
1001
0000
1100
0110
1010
0110
0011
0110
,
0101
0000
0000
0000
0110
0000
0000
0000
0101
1010
0101
1010
0101
1010
0101
1010
,
0001
0010
0100
1000
0001
0000
1000
0001
,
1000
0100
0010
0001
1000
0000
0001
1000
,
0001
0010
0100
1000
0001
0000
1000
0001
,
1000
0100
0010
0001
1000
0000
0001
1000
,
0110
0000
1100
0000
0110
1001
0110
0000
,
1010
0000
0000
0000
0101
0000
0000
0000
1010
0100
1000
0100
1000
0100
1000
0100
,
0011
0000
1100
0000
0011
0101
1001
0000
,
1110
0111
1011
1101
,
1001
0010
0100
1000
0101
0010
0001
0010
,
1100
0000
0011
0000
0110
1100
0110
0000
,
0011
0000
0000
0000
1100
0000
0000
0000
1010
0100
1000
0100
1000
0100
1000
0100
,
0011
0000
1100
0000
0110
0011
0110
0000
,
1100
0000
0000
0000
0011
0000
0000
0000
0101
0010
0001
0010
0001
0010
0001
0010
,
1100
1100
0011
0011
,
0110
0000
0000
0000
0110
0000
0000
0000
1000
1000
1000
1000
1000
1000
1000
1000
,
0011
0011
1100
1100
,
0110
0000
0000
0000
0110
0000
0000
0000
0001
0001
0001
0001
0001
0001
0001
0001
,
1010
0101
0110
1010
,
1100
1100
0000
0022
0000
0000
1133
0000
,
0110
0011
1010
0101
,
0011
0011
0000
2200
0000
0000
3311
0000
,
1100
0000
0110
0000
1001
1010
1100
0000
,
0101
0000
1010
0000
0101
0000
0000
0000
0110
0001
0100
0001
0100
0001
0100
0001
,
1010
0000
0101
0000
1100
0110
0011
0000
,
0012
0000
0000
0000
0010
0000
0000
0000
0010
1000
0010
1000
0010
1000
0010
1003
,
0110
0110
0101
0101
1010
1010
1100
1100
,
0110
0110
0011
0011
0110
1001
1010
0110
,
0011
0000
1100
0000
1001
0011
1001
0000
,
1100
0000
0000
0000
0011
0000
0000
0000
0101
0010
0001
0010
0001
0010
0001
0010
,
1100
0000
0011
0000
1001
1100
1001
0000
,
0011
0000
0000
0000
1100
0000
0000
0000
1010
0100
1000
0100
1000
0100
1000
0100
,
0011
0011
1100
1100
,
1001
0000
0000
0000
1001
0000
0000
0000
0010
0010
0010
0010
0010
0010
0010
0010
,
1100
1100
0011
0011
,
0110
0000
0000
0000
0110
0000
0000
0000
0100
0100
0100
0100
0100
0100
0100
0100
,
1010
0000
0101
0000
0020
0000
0000
0030
,
0101
0000
1010
0000
0200
0000
0000
0300
,
1010
0000
0101
0000
0020
0000
0000
0030
,
0101
0000
1010
0000
0200
0000
0000
0300
,
1000
0000
1000
0000
0020
0000
0000
0030
,
0100
0000
0100
0000
0002
0000
0000
0003
,
0001
0000
0001
0000
0200
0000
0000
0300
,
0010
0000
0010
0000
2000
0000
0000
3000
,
0100
0000
0100
0000
0020
0000
0000
0030
,
1000
0000
1000
0000
0002
0000
0000
0003
,
0010
0000
0010
0000
0200
0000
0000
0300
,
0100
0000
0100
0000
2000
0000
0000
3000
,
0100
0001
0100
0000
,
0010
1000
0010
0000
,
0100
0001
0100
0000
,
0010
1000
0010
0000
,
1000
0000
0010
0000
,
0001
0000
0100
0000
,
1000
0000
0010
0000
,
0001
0000
0100
0000
,
1000
0000
0010
0000
,
0100
0000
0001
0000
,
0010
0000
1000
0000
,
0010
0000
0100
0000
;

//---------------dance-single - ----------------
#NOTES:
     dance-single:
     :
     Medium:
     1:
     0.000,0.000,0.000,0.000,0.000,0.000,0.000,0.000,0.000,0.000:
0000
0000
0000
0000
;
